Results 1 to 2 of 2

Thread: Video quality degraded when rendered.

  1. Default Video quality degraded when rendered.

    So I rendered I rendered a WMV to WMV using the after effects encoder and the video remained fine.

    HOWEVER, once I started editing the actual video in premiere, then rendered it, it became awful. I always render it at the same FPS and resolution it was when I got it and have tried to do it in various different formats (FLV, AVI, WMV) but the video quality is always awful. Why is this happening? How do I fix it?

  2. Default

    Here is the oringial source material stats. Perhaps this information will be of some use?

    General
    Complete name : C:\Documents and Settings\Billcosby\Desktop\New Folder\Interview.wmv
    Format : Windows Media
    File size : 55.8 MiB
    Duration : 11mn 39s
    Overall bit rate mode : Constant
    Overall bit rate : 669 Kbps
    Maximum Overall bit rate : 680 Kbps
    Encoded date : UTC 2012-09-10 04:45:45.460

    Video
    ID : 2
    Format : VC-1
    Format profile : MP@LL
    Codec ID : WMV3
    Codec ID/Info : Windows Media Video 9
    Codec ID/Hint : WMV3
    Description of the codec : Windows Media Video 9
    Duration : 11mn 39s
    Bit rate mode : Constant
    Bit rate : 544 Kbps
    Width : 320 pixels
    Height : 240 pixels
    Display aspect ratio : 4:3
    Frame rate : 24.000 fps
    Bit depth : 8 bits
    Scan type : Progressive
    Compression mode : Lossy
    Bits/(Pixel*Frame) : 0.295
    Stream size : 45.4 MiB (81%)
    NumberOfFrames : 16775

    Audio
    ID : 1
    Format : WMA
    Format version : Version 2
    Codec ID : 161
    Codec ID/Info : Windows Media Audio
    Description of the codec : Windows Media Audio 9.2 - 127 kbps, 48 kHz, stereo Low Delay 2-pass CBR
    Duration : 11mn 39s
    Bit rate mode : Constant
    Bit rate : 127 Kbps
    Channel(s) : 2 channels
    Sampling rate : 48.0 KHz
    Bit depth : 16 bits
    Stream size : 10.6 MiB (19%)
    Last edited by denversteal; 10-03-2012 at 06:26 AM.

Similar Threads

  1. Issue: quality of rendered video when containing panning (rotation).
    By handelic in forum Sony Vegas video editing apps
    Replies: 3
    Last Post: 01-14-2012, 04:18 PM
  2. Video Rendered out of Photoshop CS4
    By JRShof in forum Adobe Premiere, Premiere Elements, and After Effects
    Replies: 0
    Last Post: 09-07-2010, 11:00 PM
  3. Lossless RGB content being degraded in output
    By mark007 in forum Adobe Premiere, Premiere Elements, and After Effects
    Replies: 0
    Last Post: 09-04-2009, 04:07 PM
  4. Rendered Video Flickers
    By Kameron in forum Sony Vegas video editing apps
    Replies: 2
    Last Post: 01-29-2009, 02:10 AM
  5. HD quality rendered for a DVD
    By CrashTECH in forum Sony Vegas video editing apps
    Replies: 6
    Last Post: 12-23-2008, 06:28 PM

Bookmarks

Posting Permissions

  • You may not post new threads
  • You may not post replies
  • You may not post attachments
  • You may not edit your posts
  •