Results 1 to 9 of 9

Thread: How Can I Crop an MTS file?

  1. #1

    Default How Can I Crop an MTS file?


    I've got vid: (MediaInfo Report below):
    It's an MTS file, raw from the AVCHD camera.

    My intention is to upload the vid to YouTube.

    I need to crop the beginning & the end of it off.
    Is there a free software app that will let me crop an MTS file?

    I tried Adobe Premiere but it seems the FIRST thing it does is trash the video and the audio.
    I'm using the same params in the project as below and then converting to MP4.
    Audio is 48KHz in both the original and the Premiere Export.

    The video isn't as much of a problem as the audio.
    Every time I try to export - the vid is trashed and worse, the audio is basically ruined.

    How can I end up with a clear looking & *sounding* vid on YouTube from this file?

    ID : 1 (0x1)
    Complete name : C:\Vids\DemoVids-8-9-12\3AM.MTS
    Format : BDAV
    Format/Info : Blu-ray Video
    File size : 418 MiB
    Duration : 3mn 36s
    Overall bit rate mode : Variable
    Overall bit rate : 16.2 Mbps
    Maximum Overall bit rate : 18.0 Mbps

    ID : 4113 (0x1011)
    Menu ID : 1 (0x1)
    Format : AVC
    Format/Info : Advanced Video Codec
    Format profile : High@L4.0
    Format settings, CABAC : Yes
    Format settings, ReFrames : 4 frames
    Format settings, GOP : M=3, N=15
    Codec ID : 27
    Duration : 3mn 36s
    Bit rate mode : Variable
    Bit rate : 15.1 Mbps
    Maximum bit rate : 16.8 Mbps
    Width : 1 920 pixels
    Height : 1 080 pixels
    Display aspect ratio : 16:9
    Frame rate : 29.970 fps
    Color space : YUV
    Chroma subsampling : 4:2:0
    Bit depth : 8 bits
    Scan type : Interlaced
    Scan order : Top Field First
    Bits/(Pixel*Frame) : 0.244
    Stream size : 390 MiB (93%)

    ID : 4352 (0x1100)
    Menu ID : 1 (0x1)
    Format : AC-3
    Format/Info : Audio Coding 3
    Mode extension : CM (complete main)
    Codec ID : 129
    Duration : 3mn 36s
    Bit rate mode : Constant
    Bit rate : 384 Kbps
    Channel(s) : 6 channels
    Channel positions : Front: L C R, Side: L R, LFE
    Sampling rate : 48.0 KHz
    Bit depth : 16 bits
    Compression mode : Lossy
    Delay relative to video : -67ms
    Stream size : 9.90 MiB (2%)

    ID : 4608 (0x1200)
    Menu ID : 1 (0x1)
    Format : PGS
    Codec ID : 144
    Duration : 3mn 35s
    Delay relative to video : -67ms

    I started using Adobe Premiere to edit my vid

  2. #2
    Join Date
    Mar 2011
    London, England


    That's far too much tech info for me . . . . sorry . . . . have you tried Windows LIve Movie Maker? It is a somewhat limited HD-editor free download for Win7.

    Most of the cheap Consumer Editors will download directly to YouTube - although personally I think you should burn a DVD first, and then upload that - so at least there can be no mistake....with the content uploaded....

    EDIT: Reading yr later posts you seems to be set on high quality - yet my understanding of YouTube (and others) is that the technical quality is somewhat limited...sure they're OK full-screen on a PC; but that's a small screen-size.
    IMHO you should be concerned more about the content, ie the story you are telling and for that you'll need a reasonably well-featured NLE, plenty of suggestions here and there.
    Er, FWIW.
    Last edited by vidmanners; 08-14-2012 at 12:13 AM.

  3. #3


    Thanks for the reply but Windows Live Movie Maker doesn't work with 64bit - I'm running Windows 7 64-bit.

    I have CROP the vid. Youtube will take an MTS file so other than cropping it, I shouldn't have to do anything.
    I'd LIKE to be able to down size without losing quality but apparently that's not possible.

    Is there a free software app that will let me crop an MTS file?

  4. #4


    Windows Live Movie Maker doesn't work with 64bit - I'm running Windows 7 64-bit.
    Not true. It does.

  5. #5


    How do I install it?
    Everytime I try it says it can't install due to incompatibility issues with 64-bit.
    Then the setup app simply freezes.

  6. #6


    Is there no way to get a vid out of Premiere CS4 with the same quality that the MTS file from the camera has?
    I think if I can just crop the beginning & end off each vid I'd be good.

    Every time I bring anything into Premiere it trashes it.
    Is there any way at all to stop that?

  7. #7


    u can use this video converter to resolve it in one step.

  8. #8

    Default best video editing software from avs

    i used avs video editor . i can simple cut, merge, replace audio without needing conversion.

Similar Threads

  1. Importing wmv file - File Cannot Be Opened - Header Error ?
    By wet bimbette in forum Adobe Premiere, Premiere Elements, and After Effects
    Replies: 0
    Last Post: 07-22-2011, 04:59 PM
  2. Replies: 6
    Last Post: 12-03-2010, 05:15 AM
  3. Problem burning image file created in Encore (ISO file)..
    By shaf in forum Blu Ray, DVD, SVCD and VCD authoring
    Replies: 3
    Last Post: 10-30-2008, 10:07 PM
  4. Large .avi file becomes small .avi file on Prem 6.5 Timeline
    By CharlieDone in forum Adobe Premiere, Premiere Elements, and After Effects
    Replies: 5
    Last Post: 01-19-2005, 08:16 AM


Posting Permissions

  • You may not post new threads
  • You may not post replies
  • You may not post attachments
  • You may not edit your posts