Results 1 to 3 of 3

Thread: none of the files dropped on vegas could be opened

  1. #1

    Default none of the files dropped on vegas could be opened

    hello all.

    I'm using Sony Vegas 10 and I cant import a particular avi file.

    When I try, no video shows up, no audio shows up.

    Is there anyway to import or do i have to convert?

    If I have to convert can you give me best quailty settings to use in "Xilisoft" or "Ojosoft" or any other program?

    When I try to convert it allways turns out worse.

    Thanks in advance, J.

    avi details:
    General
    Complete name : C:\saved stuff\vegas saves\gary franchi\originals\RealityReport
    Format : AVI
    Format/Info : Audio Video Interleave
    File size : 426 MiB
    Duration : 27mn 16s
    Overall bit rate : 2 181 Kbps
    Writing application : Lavf50.6.0
    Writing library : VirtualDub build 32706/release
    Video
    ID : 0
    Format : AVC
    Format/Info : Advanced Video Codec
    Format profile : High@L3.0
    Format settings, CABAC : Yes
    Format settings, ReFrames : 4 frames
    Codec ID : H264
    Duration : 27mn 16s
    Bit rate : 2 000 Kbps
    Width : 720 pixels
    Height : 400 pixels
    Display aspect ratio : 16:9
    Frame rate : 29.970 fps
    Color space : YUV
    Chroma subsampling : 4:2:0
    Bit depth : 8 bits
    Scan type : Progressive
    Bits/(Pixel*Frame) : 0.232
    Stream size : 398 MiB (94%)
    Writing library : x264 core 112 r1834bm a51816a
    Encoding settings : cabac=1 / ref=3 / deblock=1:0:0 / analyse=0x3:0x113 / me=hex / subme=7 / psy=1 / psy_rd=1.00:0.00 / mixed_ref=1 / me_range=16 / chroma_me=1 / trellis=1 / 8x8dct=1 / cqm=0 / deadzone=21,11 / fast_pskip=1 / chroma_qp_offset=-2 / threads=12 / sliced_threads=0 / nr=0 / decimate=1 / interlaced=0 / constrained_intra=0 / bframes=3 / b_pyramid=2 / b_adapt=1 / b_bias=0 / direct=1 / weightb=1 / open_gop=0 / weightp=2 / keyint=250 / keyint_min=25 / scenecut=40 / intra_refresh=0 / rc_lookahead=40 / rc=abr / mbtree=1 / bitrate=2000 / ratetol=1.0 / qcomp=0.60 / qpmin=0 / qpmax=51 / qpstep=4 / crop_rect=0,0,0,0 / ip_ratio=1.40 / aq=1:1.00
    Audio
    ID : 1
    Format : MPEG Audio
    Format version : Version 1
    Format profile : Layer 3
    Mode : Joint stereo
    Codec ID : 55
    Codec ID/Hint : MP3
    Duration : 27mn 16s
    Bit rate mode : Constant
    Bit rate : 128 Kbps
    Channel(s) : 2 channels
    Sampling rate : 48.0 KHz
    Stream size : 25.0 MiB (6%)
    Alignment : Split accross interleaves
    Interleave, duration : 33 ms (1.00 video frame)
    Interleave, preload duration : 500 ms
    Last edited by jakebrighton; 04-16-2011 at 12:59 PM.

  2. #2

    Default

    Additional: I have used a program called "G-Spot" to check I have the codec installed.

  3. #3

    Default

    I have the same problem. Except I'm getting video in the timeline, but no audio. Hope this gets resolved!

Similar Threads

  1. sdr-s26 card door opened
    By hunchermuncher in forum Technology advice and tips
    Replies: 0
    Last Post: 02-28-2011, 12:16 AM
  2. Replies: 6
    Last Post: 12-03-2010, 06:15 AM
  3. Vegas Pro 9.0d freezes when I've opened a big project
    By Odin in forum Sony Vegas video editing apps
    Replies: 7
    Last Post: 10-27-2010, 02:05 AM
  4. Kdvideoblog opened
    By Manuele in forum Forum Announcements and News
    Replies: 3
    Last Post: 02-14-2010, 09:37 PM
  5. No audio with clips opened in Ulead VS7
    By Spauld in forum Sony Vegas video editing apps
    Replies: 0
    Last Post: 12-23-2008, 10:27 PM

Bookmarks

Posting Permissions

  • You may not post new threads
  • You may not post replies
  • You may not post attachments
  • You may not edit your posts
  •