Results 1 to 3 of 3

Thread: No Audio After Upload

  1. #1

    Question No Audio After Upload

    I captured a movie using FRAPs then compressed it using the XviD codec into an .avi

    At this point the clip was fine, all audio working as intended. But it was when I uploaded it onto youtube that it stopped working. The moment It was uploaded onto youtube the audio was cut... it appeared in the first few miliseconds however after that it was dead...

    Anyone know why? Thanks.

    YouTube - Left 4 Dead Lag

  2. #2

    Default

    This may help you:

    General
    Complete name : D:\zythyl\Videos\Games\Evidence.avi
    Format : AVI
    Format/Info : Audio Video Interleave
    File size : 79.8 MiB
    Duration : 41s 960ms
    Overall bit rate : 16.0 Mbps
    Writing library : VirtualDub build 30009/release

    Video
    Format : MPEG-4 Visual
    Format profile : Streaming Video@L1
    Format settings, BVOP : Yes
    Format settings, QPel : No
    Format settings, GMC : No warppoints
    Format settings, Matrix : Default
    Muxing mode : Packed bitstream
    Codec ID : XVID
    Codec ID/Hint : XviD
    Duration : 41s 960ms
    Bit rate : 9 803 Kbps
    Width : 1 680 pixels
    Height : 1 050 pixels
    Display aspect ratio : 1.600
    Frame rate : 25.000 fps
    Resolution : 24 bits
    Colorimetry : 4:2:0
    Scan type : Progressive
    Bits/(Pixel*Frame) : 0.222
    Stream size : 49.0 MiB (61%)
    Writing library : XviD 50

    Audio
    Format : FFFE
    Codec ID : FFFE
    Codec ID/Info : Extensible wave format
    Codec ID/Hint : Extensible
    Duration : 41s 960ms
    Bit rate : 6 144 Kbps
    Channel(s) : 8 channels
    Sampling rate : 48.0 KHz
    Resolution : 16 bits
    Stream size : 30.7 MiB (38%)
    Interleave, duration : 40 ms (1.01 video frame)
    Interleave, preload duration : 500 ms

  3. #3

    Default

    can you try exporting the audio to a different compression type? I remember I had a similar problem with a video, I just changed the audio compression and it worked fine (although I can't remember to what I changed it to).

Similar Threads

  1. Upload your videos here
    By Wond3r in forum Pimp the Link
    Replies: 14
    Last Post: 02-07-2008, 12:29 AM
  2. Can't upload anything - help!
    By Bialor in forum General video editing software help and advice
    Replies: 2
    Last Post: 08-10-2007, 10:29 PM
  3. file upload help
    By komatoast in forum Forum Announcements and News
    Replies: 4
    Last Post: 07-05-2007, 08:13 PM
  4. cant upload
    By Conor in forum Hardware Problems
    Replies: 7
    Last Post: 06-22-2007, 02:11 AM
  5. Testing a 5MB upload
    By Marc Peters in forum User Videos
    Replies: 3
    Last Post: 09-06-2004, 09:37 AM

Bookmarks

Posting Permissions

  • You may not post new threads
  • You may not post replies
  • You may not post attachments
  • You may not edit your posts
  •